Dàn âm thanh Blu-ray Disc™ rạp hát tại nhà 5.1 kênh

Model: BDV-E6100

9.990.0008.990.000

(Đã bao gồm VAT)

Điểm nổi bật

  • Hệ thống âm thanh 5.1 kênh, công suất thực 1000W
  • Kết nối NFC, Bluetooth và Wi-Fi
  • Chế độ thưởng thức bóng đá (Football mode) giúp tăng cường trải nghiệm xem bóng đá của bạn
  • Tính năng Internet và các Ứng dụng giải trí thuần Việt
  • Ngõ HDMI tăng cường tín hiệu lên 1080p khi phát nội dung từ đĩa DVD
  • Thưởng thức Phim/Nhạc/Hình độ phân giải cao phát qua USB hoặc DLNA
  • Điều khiển không dây qua ứng dụng SongPal hoặc TV SideView miễn phí (hỗ trợ iOS và Android)
  • Bảo hành 1 năm
  • Tặng dây HDMI (trong thùng máy)

Xem chi tiết tại www.sony.com.vn

CÒN HÀNG - Xem cửa hàng còn hàng

Hỏi đáp - Thảo luận

Nhận xét của bạn

Bạn cũng có thể thích

Dàn âm thanh 3D Blu-ray rạp hát tại nhà 5.1 kênh (màu Đen)
Trả góp 0%
18.990.000
17.990.000
Dàn âm thanh 3D Blu-ray rạp hát tại nhà (màu Trắng)
Trả góp 0%
19.990.000
18.900.000
Dàn âm thanh Blu-ray Disc™ rạp hát tại nhà 5.1 kênh
Trả góp 0%
9.990.000
8.990.000
Dàn âm thanh Blu-ray Disc™ rạp hát tại nhà 5.1 kênh
Trả góp 0%
7.990.000
6.990.000
Mời bạn hỏi đáp hoặc thảo luận về sản phẩm này
Sony Center Trần Hưng Đạo Bình luận được ưa thích
Chào Bạn,

1. Giao hàng tận nơi:

Giao hàng tận nơi, miễn phí trên phạm vi toàn quốc (không áp dụng đối với Tivi và dàn âm thanh) 
Đối với Tivi và dàn âm thanh, Sony Center sẽ liên hệ trực tiếp khách hàng để trao đổi việc giao hàng, lắp đặt và phí vận chuyển. 

2. Thời gian giao/nhận hàng:

Sau khi nhận được đơn đặt hàng, trong vòng 24h, Sony Center sẽ chủ động liên hệ lại với quý khách qua điện thoại để xác nhận đơn hàng và thời gian giao hàng cụ thể.
Thời gian giao hàng sau khi đơn hàng đã chuyển cho đơn vị vận chuyển sẽ tùy vào địa chỉ nhận hàng của quý khách:
+ Trong khu vực TPHCM và Hà Nội: 1-2 ngày làm việc
+ Các khu vực khác: 3-5 ngày làm việc. 
Máy lỗi hư hỏng bảo hành tại trung tâm 1 năm kể từ ngày mua.
34 Lê Thị Pha, P. 1, Tp. Bảo Lộc, Tỉnh Lâm Đồng Tel : 1800 588 885 (miễn phí) hoặc 1900 561 561


Hiện tại sản phẩm này đang có hàng tại Sony Center Trần Hưng Đạo nha.
Thân mời bạn đến trải nghiệm và mua sản phẩm, hoặc bạn có thể đặt mua online chọn Sony Center Trần Hưng Đạo, sẽ có nhân viên liên hệ bạn với bạn để tư vấn thêm.
Thân Mến.

Sony Center Trần Hưng Đạo
Địa chỉ : 251-253 Trần Hưng Đạo Quận 1
Liên hệ Hotline : (84-8)3837 1928 để được tư vấn hoặc giao hàng tận nơi
Thích 0 2 năm trước
Cường
Dàn loa này nhà mình chỉ có âm thanh từ 2 loa trước thì xử lí nnao bạn?
Trả lời Thích 0 2 năm trước
  • Admin_Quân Lý Quản trị viên
    Chào anh Cường,
    Trường hợp này có nhiều nguyên nhân có thể nhé anh. Đầu tiên, hãy kiểm tra các jack dây loa đã kết nối kỹ chưa.
    Sau đó, anh kiểm tra thử có đang đặt chế độ âm thanh Sound Mode 2CH (2 kênh) không, nếu có, hãy chuyển chế độ khác.
    Ngoài ra, âm thanh phát 2 kênh cũng phụ thuộc vào định dạng âm thanh của file phim, nhạc anh đang xem nữa nhé.

    Thân mến
    Thích 0 2 năm trước
  • Mời bạn thảo luận hoặc đánh giá về sản phẩm này
nguyen quoc anh
mua hang online ntn vay ban
Trả lời Thích 0 2 năm trước
  • Sony Center Hồng Bàng Quản trị viên
    Chào bạn,
    Shop đang có hàng.
    Bạn có thể vào trang:https://sonycenter.sony.com.vn/ - Chọn sản phẩm - Chọn Sony Center Hồng Bàng - Tiến hành đặt hàng - Khi Bạn đặt đơn hàng thành công Shop sẽ liên lạc với Bạn trong thời gian sớm nhất nhé.( giao hàng miễn phí )

    Thân mến,
    Sony Center Hồng Bàng
    445-447 Hồng Bàng, P.14, Q.5, Tp.HCM
    Hotline : 08 38 536 360 ( nhấn phím 0 )
    Giờ làm việc: 8h30 – 20h30
    Thích 0 2 năm trước
  • Sony Center Xuân Thủy Quản trị viên
    Chào bạn!
    Shop đang có hàng. Bạn có thể đặt hàng Online - Chọn Sony Center Xuân Thủy , khi đơn hàng đặt thành công Shop sẽ liên hệ lại với Bạn nhé ( Giao Hàng Miễn Phí ).
    Thân mến,
    Sony Center Xuân Thủy
    100 Xuân Thủy, Cầu Giấy, Hà Nội
    Tel: 043 793.9060
    Giờ làm việc: 8h – 21h30
    Thích 0 2 năm trước
  • Mời bạn thảo luận hoặc đánh giá về sản phẩm này
Mai
Mình muốn hỏi mic hát karaoke của dàn loa sony giá bn vậy
Trả lời Thích 0 2 năm trước
  • Admin_Quân Lý Quản trị viên
    Chào bạn,
    Về mic hát karaoke Ad không rõ nhé, vì Sony Center không kinh doanh bạn nhé. Bạn vui lòng tham khảo các shop chuyên phụ kiện âm thanh karaoke nhé

    Thân mến
    Thích 0 2 năm trước
  • Mời bạn thảo luận hoặc đánh giá về sản phẩm này
Trung
Loa nay ben còn hàng k z ?
Trả lời Thích 0 3 năm trước
  • Sony Center Hồng Bàng Quản trị viên
    Chào bạn Trung,
    Shop đang có hàng.Thân mời Bạn đến Shop trải nghiệm sản phẩm hoặc đặt hàng Online - Chọn Sony Center Hồng Bàng ( Giao Hàng Miễn Phí ).

    Thân mến,
    Sony Center Hồng Bàng
    445-447 Hồng Bàng, P.14, Q.5, Tp.HCM
    Hotline : 08 38 536 360 ( nhấn phím 0 )
    Giờ làm việc: 8h30 – 20h30
    Thích 0 3 năm trước
  • Mời bạn thảo luận hoặc đánh giá về sản phẩm này
Chiểu
Loa này có hát được karaoke không ạ và nếu hát được có cần mua thêm những phụ kiện gì nữa không vậy ad?
Trả lời Thích 0 3 năm trước
  • Sony Center Hai Bà Trưng Quản trị viên
    Chào bạn Chiểu

    Dàn âm thanh Blu-ray Disc™ rạp hát tại nhà 5.1 kênh BDV-E6100 có cổng mic để hát karaoke bạn nhé. Bạn cần mua thêm mic để hát nhé.

    Thân chào bạn
    Sony Center Hai Bà Trưng
    Địa chỉ: 215A-215B Hai Bà Trưng, P.6, Quận 3, Tp HCM
    Hotline: (08) 3820 5741 (nhấn số 0) Giờ mở cửa: 8:30 - 21:30
    Thích 0 3 năm trước
  • Chiểu
    Sony có bán mic không ạ?
    Thích 0 3 năm trước
  • Admin_Quân Lý Quản trị viên
    Chào bạn,
    Sony không có sản phẩm microphone bạn nhé

    Thân mến
    Thích 0 3 năm trước
  • Mời bạn thảo luận hoặc đánh giá về sản phẩm này
Ngọc Hoàn
Sonycenter cho hỏi tại sao đầu BDV-E6100 nhà mình khi xem file MKV sử dụng âm thanh True HD thì báo là không hỗ trợ định dạng âm thanh này, chỉ có hình mà không có tiếng. mình xem video trên USB. Mình thấy trên web ghi là có hỗ trợ âm thanh True HD này mà sao lại không nghe được vậy. làm sao để có tiếng được?
Thông tin Audio của mình như sau:
Audio
ID : 2
Format : TrueHD
Codec ID : A_TRUEHD
Duration : 7 min 17 s
Bit rate mode : Variable
Bit rate : 1 906 kb/s
Maximum bit rate : 2 100 kb/s
Channel(s) : 2 channels
Channel positions : Front: C
Sampling rate : 48.0 kHz
Frame rate : 1 200.000 FPS (40 spf)
Compression mode : Lossless
Stream size : 99.5 MiB (22%)
Language : Vietnamese
Default : Yes
Forced : No
Trả lời Thích 0 3 năm trước
  • Sony Center Trần Hưng Đạo Quản trị viên
    Chào Bạn,

    Phụ thuộc vào file của bạn có trích xuất ra True HD không nữa nha, nếu chỉ stereo thì không thể nghe được.

    Hiện tại sản phẩm này đang có hàng tại Sony Center Trần Hưng Đạo nha.
    Thân mời bạn đến trải nghiệm và mua sản phẩm, hoặc bạn có thể đặt mua online chọn Sony Center Trần Hưng Đạo, sẽ có nhân viên liên hệ bạn với bạn để tư vấn thêm.
    Thân Mến.

    Sony Center Trần Hưng Đạo
    Địa chỉ : 251-253 Trần Hưng Đạo Quận 1
    Liên hệ Hotline : (84-8)3837 1928 để được tư vấn hoặc giao hàng tận nơi
    Thích 0 3 năm trước
  • Ngọc Hoàn
    âm thanh của file nhạc đó là stereo 2 channels. Vậy phải là âm thanh TrueHD 5.1 mới nghe được à sony centre?
    Thích 0 3 năm trước
  • Sony Center Trần Hưng Đạo Quản trị viên
    Chào Bạn,

    Hầu hết các file nhạc khi chép hoặc download bên ngoài thường có nén âm thanh nên file sẽ khá nhẹ và mất đi dung lượng gốc hoặc bỏ đi phần hỗ trợ âm thanh 5.1 .

    Bạn muốn biết rõ nhất là hay thử = 1 đĩa bluray. Đó là đĩa gốc và âm thanh không bị nén nên sẽ rõ nhất.

    Hiện tại sản phẩm này đang có hàng tại Sony Center Trần Hưng Đạo nha.
    Thân mời bạn đến trải nghiệm và mua sản phẩm, hoặc bạn có thể đặt mua online chọn Sony Center Trần Hưng Đạo, sẽ có nhân viên liên hệ bạn với bạn để tư vấn thêm.
    Thân Mến.

    Sony Center Trần Hưng Đạo
    Địa chỉ : 251-253 Trần Hưng Đạo Quận 1
    Liên hệ Hotline : (84-8)3837 1928 để được tư vấn hoặc giao hàng tận nơi
    Thích 0 3 năm trước
  • Mời bạn thảo luận hoặc đánh giá về sản phẩm này
Ngọc Hòan
Sony cho hỏi tại sao đầu BDV-E6100 nhà mình khi xem file MKV sử dụng âm thanh True HD thì báo là không hỗ trợ định dạng âm thanh này. xem video trên USB. Mình thấy trên web ghi là có hỗ trợ âm thanh này mà. Thông tin Audio của mình như sau:
Audio
ID : 2
Format : TrueHD
Codec ID : A_TRUEHD
Duration : 7 min 17 s
Bit rate mode : Variable
Bit rate : 1 906 kb/s
Maximum bit rate : 2 100 kb/s
Channel(s) : 2 channels
Channel positions : Front: C
Sampling rate : 48.0 kHz
Frame rate : 1 200.000 FPS (40 spf)
Compression mode : Lossless
Stream size : 99.5 MiB (22%)
Language : Vietnamese
Default : Yes
Forced : No
Trả lời Thích 1 3 năm trước
  • Sony Center Trần Hưng Đạo Quản trị viên
    Chào Bạn,

    Phụ thuộc vào file của bạn có trích xuất ra True HD không nữa nha, nếu chỉ stereo thì không thể nghe được.

    Hiện tại sản phẩm này đang có hàng tại Sony Center Trần Hưng Đạo nha.
    Thân mời bạn đến trải nghiệm và mua sản phẩm, hoặc bạn có thể đặt mua online chọn Sony Center Trần Hưng Đạo, sẽ có nhân viên liên hệ bạn với bạn để tư vấn thêm.
    Thân Mến.

    Sony Center Trần Hưng Đạo
    Địa chỉ : 251-253 Trần Hưng Đạo Quận 1
    Liên hệ Hotline : (84-8)3837 1928 để được tư vấn hoặc giao hàng tận nơi
    Thích 0 3 năm trước
  • Mời bạn thảo luận hoặc đánh giá về sản phẩm này
thanhanstqn
shop cho mình hỏi, nếu mua dàn BDV-E6100 này và mua thêm máy chiếu và ổ cứng chứa phim bluray thì đã có thể xem phim dc chưa bạn?
Trả lời Thích 1 3 năm trước
  • Sony Center Hồng Bàng Quản trị viên
    Chào bạn thanhanstqn,
    vấn đề của Bạn thắc mắc - sản phẩm của Sony hoàn toàn có thể đáp ứng được, Bạn có thể liên hệ trực tiếp với Shop để được tư vấn thêm thông tin chi tiết nha.

    Thân mến,
    Sony Center Hồng Bàng
    445-447 Hồng Bàng, P.14, Q.5, Tp.HCM
    Hotline : 08 38 536 360 ( nhấn phím 0 )
    Thích 0 3 năm trước
  • Mời bạn thảo luận hoặc đánh giá về sản phẩm này
Nhật
Lỗ cắm chuyển ra mic của đầu là bao nhiêu vậy ah
Trả lời Thích 0 3 năm trước
  • Sony Center Quang Trung Quản trị viên
    chào bạn !

    Đầu vào của mic la 3.5 mm nhé , nếu bạn xài mic 6.5mm thì bạn mua thêm đầu chuyển từ 6.5 mm ra 3.5 mm
    Thích 0 3 năm trước
  • Mời bạn thảo luận hoặc đánh giá về sản phẩm này
Đạt
Cho em hỏi đường kính của loa sub là mấy vậy ạ. Em xem ở trang chủ sony.com.vn không thấy đề cập
Trả lời Thích 0 3 năm trước
  • Sony Center Hai Bà Trưng Quản trị viên
    Chào bạn Đạt

    Đường kính loa Sub khoảng 16cm bạn nhé. Bạn có thể liên hệ Sony Center hoặc tổng đài 1800 588 885 (free)/ 1900 561 561 để được hỗ trợ thêm bạn nhé.

    Thân chào bạn
    Sony Center Hai Bà Trưng
    Địa chỉ: 215A-215B Hai Bà Trưng, P.6, Quận 3, Tp HCM
    Hotline: (08) 3820 5741 (nhấn số 0) Giờ mở cửa: 8:30 - 21:30
    Thích 0 3 năm trước
  • Mời bạn thảo luận hoặc đánh giá về sản phẩm này
Trang 8 / 12 1 2 3 4 5 6 7 8 9 10
Mời bạn đánh giá về sản phẩm này
Trang 8 / 2 1 2

Bạn cần hỗ trợ, CLICK here!

 

Góp ý về Website

 

Đã xem